PDA

Orijinalini görmek için tıklayınız : MeGUI Pogramı ile Sesin Fps Değerini Değiştirme (Videolu Anlatım)



AdReNaLiNe
24.04.2016, 06:08
http://i.hizliresim.com/VaJG6j.jpg

Merhaba değerli SadeceSes üyeleri sizlere Megui programı ile sesin FPS değerini değiştirmeyi videolu anlatacağım.
İşinize yarayacağını umuyorum. İyi forumlar.

**Megui İndir (http://www.videohelp.com/software/MEGUI)**


https://youtu.be/lqwnFD_9Rt0

mhtozk
24.04.2016, 07:49
Teşekkürler.

mft2000
24.04.2016, 12:16
teşekkürler

Grimm
24.04.2016, 15:11
50 fpsye kadar nasıl kaliteli şekilde değiştirebiliriz ve dakikası dakikasına uyduğu halde ses uyumsuz oluyorsa nasıl uyumlu yapabiliriz birde delay değeri nasıl bulabiliriz hocam

tabu
24.04.2016, 15:48
teşekkürler

freebird23
08.05.2016, 16:10
çok teşekkürler

1mak1mak
18.05.2016, 01:36
Teşekkürler ben "BeSweetGUI" kullanıyorum oda hızlı ve kullanışlıdır.

AdReNaLiNe
18.05.2016, 21:47
Teşekkürler ben "BeSweetGUI" kullanıyorum oda hızlı ve kullanışlıdır.

Evet BesWeetGUI de iyi bir programdır.

xmenler09
18.05.2016, 21:54
megui harika programdır yıllardır kullanıyorum.ancak hevc çevirecek program lazım artık.handbreake de yapabiliyor ama çok aşırı yavaş neredeyse bir gün sürüyor.daha hızlı çeviri yapabilecek program varmı bilen ismini yazsa yeterlidir tşkler

kafesci11
22.05.2016, 14:38
elimde bi ses var ac3 e çevirince kesik kesik oluyor neden olur acaba?

AdReNaLiNe
22.05.2016, 16:27
elimde bi ses var ac3 e çevirince kesik kesik oluyor neden olur acaba?

Megui ile çevirince mi oluyor sadece bide fps değişimi falan yapıyor musunuz? Orijinal seste dediğiniz olay oluyor mu acaba?

kafesci11
22.05.2016, 16:55
Megui ile çevirince mi oluyor sadece bide fps değişimi falan yapıyor musunuz? Orijinal seste dediğiniz olay oluyor mu acaba?

ben filmi internetten indirdim xvid olarak
mkvmerge ile içinden sesi ayırdım mka olarak çıktı
megui ilede hem fps değişikliği hem ac3 e çevirme işlemi yapacağım ama kesik kesik oluyor
fps ile oynamadan sadece ac3 e çevirdim ama yine aynı oldu kesik kesik oluyor isterseniz ses dosyasını megaya yükleyebilirim kontrol etmek isterseniz

AdReNaLiNe
22.05.2016, 18:37
ben filmi internetten indirdim xvid olarak
mkvmerge ile içinden sesi ayırdım mka olarak çıktı
megui ilede hem fps değişikliği hem ac3 e çevirme işlemi yapacağım ama kesik kesik oluyor
fps ile oynamadan sadece ac3 e çevirdim ama yine aynı oldu kesik kesik oluyor isterseniz ses dosyasını megaya yükleyebilirim kontrol etmek isterseniz

Mkvmerge filmden sesi çıkarırken bazen bozabiliyor. MKV filmden ses çıkarırken MKVExtractGUI, avi filmlerden sesi AviMuxGUI programı ile çıkarmanızı öneririm. Bu şekilde sesi çıkarırken uzantı değişim sorunu yaşamamış olursunuz ac3 sesi ac3 olarak alırsınız sestede bozulma olmaz.

kafesci11
22.05.2016, 22:38
Mkvmerge filmden sesi çıkarırken bazen bozabiliyor. MKV filmden ses çıkarırken MKVExtractGUI, avi filmlerden sesi AviMuxGUI programı ile çıkarmanızı öneririm. Bu şekilde sesi çıkarırken uzantı değişim sorunu yaşamamış olursunuz ac3 sesi ac3 olarak alırsınız sestede bozulma olmaz.

avimuxgui ile sesi ayırdığım zaman da .mka uzantılı çıkıyor yine aynı değişen birşey olmuyor :( nasıl olcak acaba?

sle7en
23.05.2016, 00:37
kafesci insan bi sese sağ tıklar veya 2 kere tıklar bir kurcalar yahu .yemek pişse bile dişimizle çiğniyoruz.

kafesci11
23.05.2016, 02:46
kafesci insan bi sese sağ tıklar veya 2 kere tıklar bir kurcalar yahu .yemek pişse bile dişimizle çiğniyoruz.

öncelikle sorunu hallettim onu belirtmek isterim ben bilgi sahibi olmadığım birşey hakkında sitede bulunan üyelerden yardım istedim kimse sizden zorla da yorum yapmanızı istemedi sırf laf olsun diye böyle gereksiz ve saçma sapan bir yorum yapacağınıza konuya bakıp çıksanız daha iyi olacaktı ve herşeyi hazıra beklediğim gibi bir durum yok ortada öyle olsa sorun yaşadığım filmin sesini ses istek konusuna yazardım siteye yüklenir indirip kullanırdım uğraşıyorum ki birşeyler öğrenebileyim ;) bu şekilde yorum yaparak hiç tanımadığınız bir kişiyi (küçümseyerek,hazırcı olmakla,beceriksizlikle) yada nasıl tabir ediyorsanız itham etmek haddinizde hakkınızda değildir!

eddie
25.06.2016, 23:00
direct link 302 Found (http://www.videohelp.com/download/MeGUI_2624_x86.zip)

kaya
17.09.2016, 21:48
Mkvmerge filmden sesi çıkarırken bazen bozabiliyor. MKV filmden ses çıkarırken MKVExtractGUI, avi filmlerden sesi AviMuxGUI programı ile çıkarmanızı öneririm. Bu şekilde sesi çıkarırken uzantı değişim sorunu yaşamamış olursunuz ac3 sesi ac3 olarak alırsınız sestede bozulma olmaz.
hocam 23 ten 24 e çevirme yok seçenekler arasında. onu nasıl yapıcaz. ilk önce 25 e, sonra da 25 ten 24 e çevirmeye çalışmak çok zaman alıcak çünkü
daha önce The AC3Machine kullanıyordum çok da sağlıklıydı ama son win10 güncellemesinden sonra işlem yapmamaya başladı :(

mhtozk
05.11.2016, 17:57
Yada sesi 23 FPS yapıp gönderebilecek olan olursa sevinirim.

HalBenHB
27.07.2017, 20:21
Ben direkt uzun zamandır denediğim örnek üzerinden bir sıkıntımı anlatacağım. Elimde Ben 10'in 2005 serisinin 720p WEB-DL hali var ve 23:28 uzunluğunda. Aynı şekilde Ben 10'in Türkiye'de yayınlanan TV-Rip versiyonu var bu da 21:55 uzunluğunda. Uzun zamandır bu 21:55'lik videodaki sesi alıp 720p olan haline entegre etmeye çalışıyorum. Ama bir türlü olmuyor.


Öncelikle Audacity ile TV-Rip versiyonuna Hız Değişimi uygulayıp 23:28'e getiriyorum. İlk ses dalgası ile son ses dalgasını üst üste bindiriyorum ama aralarda kayma var. Ve sabit delay verilerek çözülecek bir kayma değil. Çünkü kayma değişiyor. 1. dakikada 1 saniye kadarlık, 10. dakikada 12 saniye kadar falan bi kayma var. Sonra sonlara doğru tekrar kayma azalıyor. 23. dakikalarda kayma tekrar 10 saniye oluyor ve videonun sonuna doğru (son ses dalgalarını üst üste bindirdiğim için) sesler üst üste bindiği için tekrar kayma 0 oluyor.

Sonra buradaki gibi Megui ile fps değişimi yaptım. 21:55'lik videoyu 25fps to 23.976'ya çevirdim ama bu kez uzunluğu 23:28 değil 22:51 oldu. (TV-Rip olanda kesinlikle reklam falan yok veyahut WEB-DL olanda bi ekstra sahne falan yok.)

Aynı fps değiştirme işlemini başka programlarla yaptım ama ms farkı ile yine 22:51'lik sonuçlar aldım. Sonuç olarak bu 21:55'lik videodaki Türkçe sesi 23:28'lik 720p versiyona gömemedim. Ne yapmam lazım?


Biraz uzun oldu biliyorum konu olarak açacaktım ama uygun kategori bulamadım.

Bu 23:28'lik 720P WEB-DL


General
Unique ID : 229215950207238154012683939985375225310 (0xAC7162DF8B938C0BA226C9698EE9E5DE)
Complete name : Ben.10.2006.Season.01.S01.Web-DL.720p.10bit.2ch.x265.HEVC-Qman[UTR].Perfecto\Ben.10.S01E01.And.Then.There.Were.10.x26 5.HEVC-Qman[UTR].mkv
Format : Matroska
Format version : Version 4 / Version 2
File size : 283 MiB
Duration : 23 min 27 s
Overall bit rate : 1 687 kb/s
Encoded date : UTC 2016-01-27 13:22:31
Writing application : mkvmerge v8.8.0 ('Wind at my back') 64bit
Writing library : libebml v1.3.3 + libmatroska v1.4.4

Video
ID : 1
Format : HEVC
Format/Info : High Efficiency Video Coding
Format profile : Main 10@L3.1@Main
Codec ID : V_MPEGH/ISO/HEVC
Duration : 23 min 27 s
Bit rate : 1 528 kb/s
Width : 1 280 pixels
Height : 720 pixels
Display aspect ratio : 16:9
Frame rate mode : Constant
Frame rate : 23.976 (24000/1001) FPS
Color space : YUV
Chroma subsampling : 4:2:0
Bit depth : 10 bits
Bits/(Pixel*Frame) : 0.069
Stream size : 256 MiB (91%)
Writing library : x265 1.8+212-792f6ead9c50:[Windows][GCC 6.0.0][64 bit] 10bit
Encoding settings : wpp / ctu=64 / min-cu-size=8 / max-tu-size=32 / tu-intra-depth=1 / tu-inter-depth=1 / me=3 / subme=3 / merange=57 / no-rect / no-amp / max-merge=3 / temporal-mvp / no-early-skip / rdpenalty=0 / no-tskip / no-tskip-fast / strong-intra-smoothing / no-lossless / no-cu-lossless / no-constrained-intra / no-fast-intra / open-gop / no-temporal-layers / interlace=0 / keyint=250 / min-keyint=23 / scenecut=40 / rc-lookahead=25 / lookahead-slices=4 / bframes=8 / bframe-bias=0 / b-adapt=2 / ref=4 / limit-refs=3 / limit-modes / weightp / no-weightb / aq-mode=3 / qg-size=32 / aq-strength=1.00 / cbqpoffs=0 / crqpoffs=0 / rd=4 / psy-rd=2.00 / rdoq-level=2 / psy-rdoq=1.00 / no-rd-refine / signhide / deblock / sao / no-sao-non-deblock / b-pyramid / cutree / no-intra-refresh / rc=crf / crf=23.9 / qcomp=0.60 / qpmin=0 / qpmax=51 / qpstep=4 / ipratio=1.40 / pbratio=1.30
Language : English
Default : Yes
Forced : No

Audio
ID : 2
Format : AAC
Format/Info : Advanced Audio Codec
Format profile : LC
Codec ID : A_AAC
Duration : 23 min 27 s
Bit rate : 157 kb/s
Channel(s) : 2 channels
Channel positions : Front: L R
Sampling rate : 48.0 kHz
Frame rate : 46.875 FPS (1024 SPF)
Compression mode : Lossy
Stream size : 26.3 MiB (9%)
Language : English
Default : Yes
Forced : No

Text
ID : 3
Format : UTF-8
Codec ID : S_TEXT/UTF8
Codec ID/Info : UTF-8 Plain Text
Duration : 22 min 33 s
Bit rate : 62 b/s
Count of elements : 292
Stream size : 10.3 KiB (0%)
Language : English
Default : No
Forced : No




Bu da 21:55'lik TV-Rip


General
Complete name : B10101.MP4
Format : MPEG-4
Format profile : Base Media / Version 2
Codec ID : mp42 (isom/mp42)
File size : 67.6 MiB
Duration : 21 min 55 s
Overall bit rate mode : Variable
Overall bit rate : 431 kb/s
Encoded date : UTC 2014-03-23 13:44:22
Tagged date : UTC 2014-03-23 13:44:22
gsst : 0
gstd : 1315293
gssd : B0AFCFBC6HM1441998262219326
gshh : r6---sn-nv47ened.c.docs.google.com

Video
ID : 1
Format : AVC
Format/Info : Advanced Video Codec
Format profile : Baseline@L2.1
Format settings, CABAC : No
Format settings, RefFrames : 1 frame
Format settings, GOP : M=1, N=60
Codec ID : avc1
Codec ID/Info : Advanced Video Coding
Duration : 21 min 55 s
Bit rate : 333 kb/s
Maximum bit rate : 2 069 kb/s
Width : 450 pixels
Height : 360 pixels
Display aspect ratio : 5:4
Frame rate mode : Constant
Frame rate : 25.000 FPS
Color space : YUV
Chroma subsampling : 4:2:0
Bit depth : 8 bits
Scan type : Progressive
Bits/(Pixel*Frame) : 0.082
Stream size : 52.2 MiB (77%)
Tagged date : UTC 2014-03-23 13:44:28

Audio
ID : 2
Format : AAC
Format/Info : Advanced Audio Codec
Format profile : LC
Codec ID : 40
Duration : 21 min 55 s
Bit rate mode : Variable
Bit rate : 96.0 kb/s
Maximum bit rate : 104 kb/s
Channel(s) : 2 channels
Channel positions : Front: L R
Sampling rate : 44.1 kHz
Frame rate : 43.066 FPS (1024 SPF)
Compression mode : Lossy
Stream size : 15.1 MiB (22%)
Title : IsoMedia File Produced by Google, 5-11-2011
Encoded date : UTC 2014-03-23 13:44:25
Tagged date : UTC 2014-03-23 13:44:28

tanzer
29.12.2017, 11:29
Merhabalar,

24 fps olan sesi 23.976 fps olarak nasil degistirebilirim yardimci olursaniz cok sevinirim, tesekkurler.

ihajix
23.05.2018, 00:43
Merhabalar,

Elimde tvden alınmış bazı çizgi filmlerin 29.97 fps türkçe dublaj ses dosyaları mevcut. İnternetten yüksek kaliteli bölümlerini indirip senkronize etmeye çalıştığımda internette var olanlar videoların fps değerleri de 23.976-25 fps gibi değerlerde oluyorlar. Ne yapıp ettiysemde bir türlü çözüme kavuşturamadım. Yardımcı olursanız çok müteşekkir olurum.

skull4578
11.07.2018, 20:41
teşekkürler

Serciey
17.08.2018, 02:06
MeGui mi, BeSweetGUI mi daha kullanışlı? Diğerinin anlatımını da ekleyebilir misiniz?

Serciey
17.08.2018, 13:14
Fps'yi aynı yapsam bile başta oturan ses sonradan kaymaya başlıyor. Bu neden kaynaklanır ve nasıl düzeltilebilir?

Korkut Ali
07.02.2019, 04:46
Detaylı bilgi için teşekürler

emreberk
12.03.2019, 22:46
hocam seçenekler içinde 23 ten 23976 ya çevirme yok. nasıl yapacağız

Juliesmoomi
29.07.2019, 11:15
İyi günler arkadaşlarım hocalarım ben ekran kaydı uygulaması olarak scr screen recorder pro kullanıyorum ama 20 fps anca veriyor bundan daha yüksek fps verebilecek bi Program varmı?
Android sürümü:4.4.2
Rootlu